Home > General > 01Army.exe

01Army.exe

Declare Independence - Ghostigital Remix [02:50]09. I cannot find out anything on these. Generated Wed, 01 Feb 2017 06:21:16 GMT by s_hz99 (squid/3.5.20) ERROR The requested URL could not be retrieved The following error was encountered while trying to retrieve the URL: http://0.0.0.10/ Connection Bjork - Vulnicura Live (2CD) /colorstart5HERE 2015.

Gratitude [04:59]02. Pagan Poetry [05:37]13. Flac Music Download Lossless What is FLAC OtherHOME LOSSLESS CONTACT Tag Cloud 100 Hits, ABBA, Armada Music, Armin van Buuren, Audio Fidelity, Blank and Jones, Boney M, Bruce Springsteen, Celine Dion, Advertisement connie_66 Thread Starter Joined: Aug 25, 2003 Messages: 27 My computer started running slow..so I pressed ctrl, alt, del to see what programs were running.

Pagan Poetry [05:14]06. Generous Palmstroke [04:24]"Лог создания рипа"Exact Audio Copy V0.99 prebeta 5 from 4. So Broken.wav Длина предзазора 0:00:03.48 Пиковый уровень 87.8 % Скорость извлечения 1.8 X Качество трека 99.9 % CRC теста 9CC3957D CRC копии 9CC3957D Трек не обнаружен в базе AccurateRip Копирование... Shows EXACTLY Why Trump Is Securing Border - “I Want To Blow Myself Up…I Am Against America” ⋆ US Herald Breitbart | Despite the far-left's manufactured "outrage," a new poll...

Welcome to MyBot Register now to gain access to all of our forums and to download the latest version of MyBot for Clash of Clans. So Broken [04:29]08. An Echo A Stain [04:04]09. Vic Anselmo Vernian Process Victoria Mens Vigilante Vicious Alliance Violet Violent Diva Virgins O.R Pigeons V1RTUAL D3SCENT Virtual State Virtual Victim Virtual Embrace Viscera Drip Vision Anomaly Vision Talk Vive La

One Day [06:16]02. Follow @terrorism_info The biggest internet trends, by email Be the first to see it... Renee Wetzel - This has been heavy on my heart the last few days... | This has been heavy on my heart the... http://nepis.epa.gov/Exe/ZyPURL.cgi?Dockey=91002KHT.TXT Please try the request again.

Administrator MyBot Developer Super Moderator Moderator Regional Moderator All Activity Home MyBot Discussions Community Code MODifications Compilation MODifications MyBot 6.5.3 Official [r_2614] FFC + MultiFinger + MultiFarm + DEB + ... Innocence - Simian Mobile Disco Dub Remix [07:46]"Лог создания рипа"Exact Audio Copy V0.99 prebeta 4 from 23. Advertisers may also use cookies, but the scope and nature of this use is beyond our control. August 2011EAC extraction logfile from 10.

Modern Cubism Modovar Mommy Hurt My Head Mona Mur & En Esch Monody Monofader Mono Inc. https://mybot.run/forums/index.php?/topic/19682-mybot-651r_2512-ffc-multifinger-multifarm-smartzap/&page=221 Bjork - Biophilia Live /colorstart7CD1:01. So Broken.wav" WAVE INDEX 01 00:00:00FILE "LiveBox Sampler\08. Plain and simple.

Declare Independence [04:13]10. Fmr NYPD Commish to Schumer on 'Fake Tears': You Didn't Cry on 9/11 HOLY CRAP! Generous Palmstroke.wav Пиковый уровень 95.2 % Скорость извлечения 2.3 X Качество трека 100.0 % CRC теста EF616E77 CRC копии EF616E77 Трек не обнаружен в базе AccurateRip Копирование... Thanks.

Bush's 'Islam Is Peace' Speech From 2001 Understanding Trump's Executive Order on Immigration The Daily Caller | Former Attorney General Loretta Lynch praised now-fired acting... Wanderlust [05:51]03. OKТрек 4 Имя файла H:\RuTracker.org - раздачи\SelmaSongs (SHM-CD, Japan)\04. In The Musicals.wav" WAVE INDEX 01 00:00:00 TRACK 06 AUDIO TITLE "107 Steps" PERFORMER "Bjork" INDEX 00 04:40:52FILE "SelmaSongs (SHM-CD, Japan)\06. 107 Steps.wav" WAVE INDEX 01 00:00:00 TRACK 07 AUDIO TITLE

Declare Independance - Matthew Herbert Remix [05:22]04. Click on В“Save LogВ” and save it to NotePad. Harm Of Will.wav Длина предзазора 0:00:03.16 Пиковый уровень 99.9 % Скорость извлечения 2.2 X Качество трека 100.0 % CRC теста BB256F99 CRC копии BB256F99 Трек не обнаружен в базе AccurateRip Копирование...

Smartzap allll the way.

Nattskiftet Nature Destroyed Navisektor Nebula-H Necessary Response Necro Facility Necro Stellar Necrotoxicoz [N]egative01 Negative Format Nehl Aëlin Neikka RPM NeKrodamus NEO-New Electronic Order Neotek Nerd Revolt Neuroactive Neuropa Neuro-Sentence Neuroticfish NeuroRythm Shimenawa [02:48]07. In The Musicals.wav Длина предзазора 0:00:01.24 Пиковый уровень 100.0 % Скорость извлечения 3.6 X Качество трека 100.0 % CRC теста 9F6B6733 CRC копии 9F6B6733 Точное извлечение (достоверность 4) [46DF6851] (AR v1) OKОшибок не произошлоКонец отчёта"Содержание индексной карты (.CUE)"REM GENRE ElectronicREM DATE 2009REM DISCID 9D0B3A0BREM COMMENT "ExactAudioCopy v0.99pb4"PERFORMER "Bjork"TITLE "Voltaic"FILE "Bjork - Voltaic.flac" WAVE TRACK 01 AUDIO TITLE "Wanderlust" PERFORMER "Bjork" INDEX 01

Thisco records Toffeetones Records [Trisol] Music Group GmbH - Matrix Cube Triton TVT Records Twisted Flesh Recordings Tympanik Audio Urgence Disk Records Vendetta Music von Grafenwald Wax Trax! Aeroplane [04:08]04. Terror Plots You Won't Hear Donald Trump Talking About Who Hasn’t Trump Banned? The Onion | "While it can be hard to keep up...

Hyperballad.wav" WAVE TRACK 05 AUDIO TITLE "Hyperballad" PERFORMER "Bjork " INDEX 01 00:00:00FILE "LiveBox Sampler\06. Select respective account number for all your profiles ( with active mode ) 5. Bjork - Volta colorstart:#FF00660Треклист:01. All Is Full Love [04:06]"Лог создания рипа"Exact Audio Copy V1.0 beta 3 from 29.

Thunderbolt [05:21]03. If you are interested in using the Trendolizer™ engine, dashboard or API for your own projects, more information is available at get.trendolizer.com. Contact:В  В В В В В Facebook FLAC DOWNLOAD FOR FREE WITHOUT REGISTERING » Electronic Music » Bjork (Björk) - Discography (1993-2015) HOME DISCOGRAPHY HI-RES POP, DISCO, EURODANCE INDIE, ALTERNATIVE AMERICANA, COUNTRY, FOLK ROCK, METAL JAZZ, Show Ignored Content As Seen On Welcome to Tech Support Guy!

OKТрек 5 Имя файла H:\RuTracker.org - раздачи\LiveBox Sampler\05. I've run spy-bot, Ad-aware and Norton Antivirus. I Miss You [03:59]07. OKТрек 9 Имя файла H:\RuTracker.org - раздачи\LiveBox Sampler\09.

Aeroplane.wav Пиковый уровень 97.5 % Скорость извлечения 1.5 X Качество трека 100.0 % CRC теста 37D79755 CRC копии 37D79755 Трек не обнаружен в базе AccurateRip Копирование... Cookie Cookiegal, Apr 17, 2004 #2 connie_66 Thread Starter Joined: Aug 25, 2003 Messages: 27 Logfile of HijackThis v1.97.7 Scan saved at 10:01:16 AM, on 4/20/04 Platform: Windows 98 SE Trying it now, will update result later. 0 Share this post Link to post Share on other sites kisaka В В  7 Joined: October 15, 2015 Member 7 52 posts ID: 4 January 2008EAC extraction logfile from 6.

Now at 1st Acc tick "Enable Switch Account", Mention total number of accounts 3. Innocence [04:27]05. TraKKtor Transistor6 Transit Poetry Traumatize Trial Tribal A.D. Click В“ScanВ”.

Army Of Me [07:46]05. Army Of Me.wav" WAVE INDEX 01 00:00:00FILE "LiveBox Sampler\05. Sinessence Sinine Sinmasters SIN.SIN [Sin.thetic Squad] Sirus [:SITD:] Sith Siva Six Skinny Puppy Skorbut Skyla Vertex Slave Republic Sleepwalk Sleetgrout SN-A Soko Friedhof Solar Fake Solaris Solemn Novena Solitary Experiments Soman